Playback Question

Home Forums General Discussion Playback Question

  • This topic is empty.
Viewing 5 posts - 1 through 5 (of 5 total)
  • Author
    Posts
  • #24208
    MoniQJalg
    Participant

    Playback doesn’t seem to be clean or sharp no matter the format. Is this because of the Wii’s Processing power or is that just the way WiiMC handles video formats?

    #30658
    rodries
    Keymaster

    Are you using a component video cable? If not, that’s your problem.

    #30659
    MoniQJalg
    Participant

    Composite cables but i think the movies could still look as sharp as the games and program graphics which are still pretty sharp in 480i with plasma display. Could sharpness be added to video settings?

    #30660
    rodries
    Keymaster

    If you want better video quality, go pick up a component cable. The difference is quite significant.

    #30661
    MoniQJalg
    Participant

    Ok, but now i have a problem playing some of my MKV formats, when i select them it will show a pixelated screen then return to playlist screen, these are its specs:

    Format : Matroska
    Format version : Version 2
    File size : 338 MiB
    Duration : 7mn 6s
    Overall bit rate : 6 640 Kbps
    Encoded date : UTC 2012-10-30 13:53:40
    Writing application : mkvmerge v5.8.0 (‘No Sleep / Pillow’) built on Sep 2 2012 15:37:04
    Writing library : libebml v1.2.3 + libmatroska v1.3.0

    Video
    ID : 1
    Format : AVC
    Format/Info : Advanced Video Codec
    Format profile : High@L4.1
    Format settings, CABAC : Yes
    Format settings, ReFrames : 4 frames
    Codec ID : V_MPEG4/ISO/AVC
    Duration : 7mn 6s
    Bit rate : 5 999 Kbps
    Width : 1 920 pixels
    Height : 1 080 pixels
    Display aspect ratio : 16:9
    Frame rate mode : Constant
    Frame rate : 23.976 fps
    Color space : YUV
    Chroma subsampling : 4:2:0
    Bit depth : 8 bits
    Scan type : Progressive
    Bits/(Pixel*Frame) : 0.121
    Stream size : 299 MiB (88%)
    Writing library : x264 core 128 r2216 198a7ea
    Encoding settings : cabac=1 / ref=4 / deblock=1:0:0 / analyse=0x3:0x133 / me=umh / subme=7 / psy=1 / psy_rd=1.00:0.02 / mixed_ref=1 / me_range=16 / chroma_me=1 / trellis=1 / 8x8dct=1 / cqm=0 / deadzone=21,11 / fast_pskip=0 / chroma_qp_offset=-3 / threads=6 / lookahead_threads=1 / sliced_threads=0 / nr=0 / decimate=1 / interlaced=0 / bluray_compat=0 / constrained_intra=0 / bframes=3 / b_pyramid=2 / b_adapt=1 / b_bias=0 / direct=1 / weightb=1 / open_gop=0 / weightp=2 / keyint=240 / keyint_min=22 / scenecut=40 / intra_refresh=0 / rc_lookahead=40 / rc=2pass / mbtree=1 / bitrate=5999 / ratetol=1.0 / qcomp=0.60 / qpmin=10 / qpmax=51 / qpstep=4 / cplxblur=20.0 / qblur=0.5 / ip_ratio=1.40 / aq=1:1.00
    Language : English
    Default : Yes
    Forced : No

    Audio
    ID : 2
    Format : AC-3
    Format/Info : Audio Coding 3
    Mode extension : CM (complete main)
    Format settings, Endianness : Big
    Codec ID : A_AC3
    Duration : 7mn 6s
    Bit rate mode : Constant
    Bit rate : 640 Kbps
    Channel(s) : 6 channels
    Channel positions : Front: L C R, Side: L R, LFE
    Sampling rate : 48.0 KHz
    Bit depth : 16 bits
    Compression mode : Lossy
    Stream size : 32.6 MiB (10%)
    Language : English
    Default : Yes
    Forced : No

Viewing 5 posts - 1 through 5 (of 5 total)
  • You must be logged in to reply to this topic.